#TITLE:Harvest;
#SUBTITLE:;
#ARTIST:Kagamine Rin;
#TITLETRANSLIT:;
#SUBTITLETRANSLIT:;
#ARTISTTRANSLIT:;
#CREDIT:;
#BANNER:Kagamine Rin - Harvest-banner.jpg;
#BACKGROUND:Kagamine Rin - Harvest-bg.jpg;
#LYRICSPATH:Kagamine Rin - Harvest.lrc;
#CDTITLE:CDTitle.png;
#MUSIC:Kagamine Rin - Harvest.ogg;
#OFFSET:0.780;
#SAMPLESTART:53.700;
#SAMPLELENGTH:12.000;
#SELECTABLE:YES;
#BPMS:0.000=145.300;
#STOPS:;
#BGCHANGES:;
// cache tags:
#FIRSTBEAT:4.000;
#LASTBEAT:263.000;
#SONGFILENAME:songs/Vocaloid Party/Kagamine Rin - Harvest/Kagamine Rin - Harvest.sm;
#HASMUSIC:1;
#HASBANNER:1;
#MUSICLENGTH:108.029;
// end cache tags

//---------------dance-single - ----------------
#NOTES:
     dance-single:
     :
     Challenge:
     9:
     0.887,0.822,0.278,0.157,1.000,624.000,30.000,17.000,5.000,0.000:
0000
0000
0000
0000
,
1000
0100
0000
0000
0010
0000
0100
0000
0010
0000
0100
0000
0010
0000
0000
0000
0001
0000
1000
0000
0001
0000
1000
0000
,
0001
0000
0000
0000
0100
0000
0010
0000
0100
0000
0010
0000
0100
0001
0000
0000
0000
0000
0001
0000
0000
0000
0000
0000
,
1000
0100
0000
0000
0010
0000
0100
0000
0010
0000
0100
0000
0010
0000
0000
0000
0001
0000
1000
0000
0001
0000
1000
0000
,
0001
0000
0000
0000
0100
0000
0010
0000
0100
0000
0010
0000
0100
0001
0000
0000
0000
0000
0001
0000
0000
0000
0000
0000
,
1010
0000
0100
0001
0100
0001
0100
0000
0010
1000
0010
1000
,
0010
0000
0100
0001
0100
0001
0110
0000
0000
0101
0000
0000
,
1100
0000
1000
0100
1000
0100
1000
0000
0001
0010
0001
0010
,
1001
0000
0100
0010
0100
0010
1010
1000
1000
0101
0001
0001
,
1001
0000
0000
0000
0100
0000
0010
0000
1000
0000
0001
0000
0100
0000
0000
0000
0010
0000
1000
0000
0001
0000
0100
0001
,
0010
0000
0000
0000
0100
0000
1000
0000
0001
0000
0010
0000
0100
0000
1000
0000
0100
0000
0010
0000
0001
0000
0010
0100
,
1000
0000
0000
0000
0010
0000
0100
0000
0001
0000
1000
0000
0100
0000
0000
0000
1000
0000
0001
0000
0100
0000
0001
1000
,
0001
0000
1000
0001
0100
0010
1010
0000
1000
0010
1000
0001
,
0100
0000
0001
1000
0010
0100
0001
0000
1000
0100
0010
0100
,
1100
0000
1000
0001
0100
0010
1000
0100
0100
1000
0001
0001
,
1000
0010
0000
0000
1000
0000
0001
0000
0100
0000
0010
0000
0100
0000
0000
0000
0010
0000
1000
0000
0100
0000
0010
0000
,
0001
0100
0010
0100
0001
1000
0010
0000
0100
0001
0010
0100
,
1000
0000
1000
0010
0000
0010
0100
0010
1000
0001
0000
0100
,
0010
1000
0010
0100
0001
1000
2002
0000
3000
2000
0000
0003
,
3010
1000
0001
0100
0010
0100
0001
0010
0100
0010
0000
0001
,
1000
0010
0100
0001
0100
0010
2020
0000
0030
0020
0000
3000
,
0130
0001
0010
0100
1000
0001
1000
0100
0010
0001
1000
0100
,
1000
0010
0100
0010
1000
0001
0220
0000
0030
0020
0000
0300
,
0130
0010
1000
0100
0010
0001
0100
0010
1000
0100
1000
0001
,
0100
0010
0100
0001
1000
0010
0100
0001
0010
0100
0000
1000
,
0001
0010
0100
0010
0000
0000
0001
0000
0000
0100
0010
0100
,
0001
0000
0000
0010
0000
0000
0100
1000
0010
0100
0000
0001
,
1000
0000
0001
0010
0100
0010
0100
0000
0000
0010
0000
0000
,
0001
0010
0100
1000
0001
0010
0100
1000
0100
1000
0010
0100
,
0001
0000
0010
0001
0100
0010
1000
0000
0000
0001
0000
0000
,
1000
0000
0000
0100
0000
0000
1000
0001
0100
0010
0000
0010
,
1000
0000
1000
0001
0100
0010
0100
0000
0100
0000
0100
0000
,
0100
0010
0100
0001
1000
0010
1000
0001
1000
0010
0000
0000
,
1000
0100
0010
0001
0010
0100
1000
0100
0010
0100
1000
0001
,
0010
0100
0010
0001
0010
0100
1M00
0000
0000
0100
0000
0000
,
1000
0001
0010
0100
1000
0100
0010
0100
1000
0001
0010
0100
,
1000
0010
0100
0001
1000
0010
01M0
0000
0000
0010
1000
0010
,
0100
0001
1000
0001
1000
0010
0100
0010
1000
0001
0100
0010
,
0100
0001
1000
0010
1000
0001
010M
0000
0000
0001
0000
0100
,
0010
1000
0001
0010
0001
1000
0010
0100
0010
1000
0001
1000
,
0010
1000
0001
0100
0010
1000
0100
0010
0010
0001
0000
0000
,
0011
0010
0100
0010
0000
0001
1000
0001
0010
0100
0000
0100
,
1000
0100
0010
0001
0100
0010
0100
0100
0000
0010
0000
0000
,
1100
1000
0010
0100
0001
1000
0100
1000
0100
0010
0000
0010
,
0001
1000
0010
0100
0100
0000
0200
0000
0300
0101
0000
0000
,
1001
1000
0001
1000
0001
0100
0010
0100
0001
1000
0010
0100
,
0010
1000
0010
0100
0001
0100
0020
0000
0030
1100
0000
0000
,
0110
0100
0010
1000
0001
0100
0010
0000
1000
0001
0100
0010
,
1000
0100
0010
0001
1000
0010
0100
0001
0100
0001
0100
0001
,
0100
0000
0000
0000
0001
0000
1000
0000
0100
0000
1000
0010
1000
0000
0000
0000
0001
0000
0100
0000
0010
0000
0100
0000
,
0001
0000
1000
0100
1000
0010
0200
0000
0000
0301
0M00
0000
,
0010
0000
0000
0000
0001
0000
1000
0000
0010
0000
0100
0010
0100
0000
0000
0000
0001
0000
1000
0000
0010
0000
0100
0000
,
0010
1000
0010
1000
0010
1000
0110
0100
0010
1000
0100
0010
,
0100
0000
0000
0000
0010
0000
0001
0000
0100
0000
0010
1000
0100
0000
0000
0000
0010
0000
0100
0000
0010
0000
0001
0000
,
0010
0000
0100
1000
0001
0010
0021
0000
0001
0000
0001
0000
,
0031
0000
0001
0100
0010
0100
0001
0000
0001
0100
0010
0100
,
0001
0000
0001
0000
0100
0001
0010
0000
0100
0000
1000
0010
,
0100
0000
0000
0000
0001
0000
1000
0010
1000
0000
0010
0000
0100
0010
0000
0000
0000
0000
0100
0000
0000
0000
0000
0000
,
0001
0000
0000
0000
1000
0000
0001
0010
0001
0000
0100
0000
0010
1000
0010
0000
0100
0000
0001
0000
0000
0000
0000
0000
,
0010
0000
0000
0000
0100
0000
1000
0100
0010
0000
0100
0000
1000
0010
0000
0000
0000
0000
0100
0000
0000
0000
0000
0000
,
0001
0000
0000
0000
0010
0001
0100
0000
0010
0000
0100
0000
0001
0000
0010
0000
0100
0000
1000
0000
0001
0000
1000
0000
,
0010
0000
0000
0000
1000
0000
0100
1000
0010
0000
0100
0000
0001
0100
0000
0000
0000
0000
0010
0000
0000
0000
0000
0000
,
0100
0000
0000
0000
0001
0000
1000
0100
0010
0000
0100
0000
1000
0001
0000
0000
0100
0000
0010
0000
0000
0000
0000
0000
,
0210
0000
0010
0000
0310
0000
0120
0000
0100
0000
0130
0000
,
0011
0000
1001
0000
1010
0000
0101
0000
0011
0000
0110
0000
,
2200
0000
0000
0000
0000
0300
0M00
0000
0000
3000
0000
0000
;

//---------------dance-single - ----------------
#NOTES:
     dance-single:
     :
     Hard:
     8:
     0.711,0.662,0.083,0.056,1.000,523.000,9.000,6.000,0.000,0.000:
0000
0000
0000
0000
,
1000
0000
0010
0100
0000
0001
1000
0000
0010
0100
0000
0001
,
1000
0000
0001
1000
0010
0100
0002
0000
0000
1000
0000
0000
,
0013
0000
0100
0001
0000
0010
0001
0000
0100
0001
0000
0010
,
0001
0000
0000
0000
0100
0000
0001
0000
1000
0000
0010
0000
0200
0000
0000
0000
0000
0000
0010
0000
0000
0300
0000
0000
,
1001
0000
0010
0100
0000
0000
1010
0000
1000
0100
0000
0000
,
1001
0000
0001
0100
0000
0010
1000
0000
0000
1010
0000
0000
,
1000
0000
1000
0001
0000
0010
0100
0000
0001
1000
0000
0100
,
0010
0000
0010
0100
1000
0100
0010
0001
0100
0001
0100
0010
,
0100
0000
0010
1000
0100
0010
0100
0000
1000
0001
0100
0010
,
0100
0000
0001
1000
0100
0010
0100
1000
0100
0010
0100
0010
,
0001
0000
0001
0100
0010
0100
0001
0000
1000
0100
0010
0100
,
1000
0000
0001
1000
0010
0100
0001
0000
1000
0100
0010
0100
,
0010
0000
0001
0010
0100
1000
0100
0000
0010
0001
1000
0100
,
0010
0000
0001
0000
1000
0000
0010
0000
0100
0000
0001
0000
,
0020
0000
0000
0000
,
0031
1000
0100
0001
0100
0010
1000
0001
0100
0010
0100
0010
,
1000
0000
0010
0100
0000
0010
1000
0100
0010
0100
0000
0010
,
0001
0010
0100
1000
0100
0010
0100
0000
0000
1100
0000
0000
,
1000
0100
0010
0001
0100
0010
1000
0100
0010
0100
0000
1000
,
0001
0100
0001
0010
0100
0010
0100
0000
0000
0110
0000
0000
,
0010
1000
0001
0100
0010
0100
0010
1000
0010
0100
0010
0100
,
0001
1000
0010
0100
0001
0100
0010
0000
0000
1010
0000
0000
,
1000
0001
0100
0010
0100
0001
1000
0010
0100
0010
0100
0001
,
0100
0010
1000
0001
1000
0010
0100
0000
0010
1000
0000
0010
,
1000
0100
1000
0100
0000
0000
0010
0000
0000
0001
0100
0001
,
0100
0010
1000
0000
,
0010
0000
1000
0001
0100
0010
0100
0000
0000
0001
0000
0000
,
1000
0100
0010
0001
0100
0010
0100
0000
0000
0100
0010
0100
,
0010
0000
1000
0001
0100
0010
0100
0000
0000
0001
0000
0000
,
1000
0010
0100
0001
,
0100
0000
0000
0000
0000
0000
0001
0000
0100
0000
0001
0000
,
1000
0010
0100
0001
0100
0010
1000
0001
0100
0010
0000
0000
,
1000
0001
0100
0010
0000
1000
0100
0000
1000
0100
0000
0010
,
0100
0010
1000
0010
0100
0010
1000
0000
0000
0010
0000
0000
,
0100
0010
1000
0100
0000
1000
0001
0000
0010
0100
0000
1000
,
0001
0010
0100
0010
0100
0010
0100
0000
0000
1000
0000
0000
,
0001
0010
0100
1000
0000
0100
0010
0000
0010
0001
0000
1000
,
0001
1000
0100
0010
0100
0010
0001
0000
0000
1000
0000
0001
,
1000
0001
0100
0010
0000
0010
0100
0000
1000
0010
0000
0100
,
0001
1000
0010
0100
0001
0100
0010
1000
0010
0100
0000
0000
,
0001
1000
0010
0100
0000
0001
0100
0010
0100
0001
0000
1000
,
0001
0100
0010
0100
0001
0100
0010
1000
0000
0100
0000
0000
,
1000
0001
0100
0010
1000
0100
1000
0100
0010
0100
0000
1000
,
0001
1000
0100
0010
0100
0000
0010
0000
0000
0001
0000
0000
,
0001
1000
0100
0010
0001
0100
0010
1000
0100
0010
0100
1000
,
0001
1000
0010
0100
0010
0100
0001
0000
0000
0001
0000
0000
,
0100
0010
1000
0100
1000
0100
0010
0000
0001
0100
0010
0100
,
0001
1000
0100
0010
0001
0100
0020
0000
0000
0000
0000
0000
,
2000
0000
0000
0030
0000
0000
3100
0000
1000
0100
0010
0100
,
1000
0000
0001
0100
0010
0100
0010
0000
0000
1000
0000
0000
,
0010
0000
1000
0001
1000
0001
1000
0000
0010
0100
0010
0100
,
0010
1000
0100
0010
0001
0100
0010
0100
0001
1000
0000
0000
,
1000
0000
0001
0100
0000
0010
1000
0000
0010
0100
0000
0010
,
1000
0000
0100
0010
0000
0100
1000
0000
1000
0000
0010
0000
,
0110
0000
0000
1000
0000
0000
0010
0000
0000
1000
0000
1000
,
0001
0000
1000
0000
0001
0010
0100
0000
0010
0000
0001
0010
,
0001
0001
2100
3001
,
1000
0000
0001
0100
0001
0100
0010
0100
0001
1000
0000
0000
,
1000
0000
0001
0100
0010
0100
0001
0000
0000
0010
0000
0000
,
0001
0000
0100
0001
0100
0010
0100
0000
0000
0000
0000
0000
,
0010
0000
1000
0010
0000
0000
0100
0000
0000
0001
0000
0000
,
1000
0000
0001
0100
0010
0100
0010
0000
1000
0010
0000
0000
,
0100
0000
0000
0001
0100
0010
0100
0000
0000
0010
1000
0001
,
0010
0000
0001
0000
0100
0000
0010
0000
1000
0000
0010
0000
,
0100
0000
0000
0000
;

//---------------dance-single - ----------------
#NOTES:
     dance-single:
     :
     Medium:
     6:
     0.518,0.542,0.139,0.019,0.727,375.000,15.000,2.000,0.000,0.000:
0000
0000
0000
0000
,
0000
0000
0000
0000
,
0000
0000
0000
0000
,
0000
0000
0000
0000
,
0000
0000
0000
0000
,
1001
0000
0000
0000
,
0100
0000
0110
0101
,
1100
0000
0001
0000
,
1010
0000
0000
0000
0000
0000
0100
0001
0100
0001
0100
0001
,
0100
0000
0001
1000
0000
0000
0001
0000
1000
0001
0000
0000
,
1000
0000
0001
1000
0000
1000
0001
0000
0001
1000
0000
1000
,
0001
0000
0100
0001
0000
0000
0001
0000
0001
0010
0000
0000
,
0100
0000
0010
0100
0000
0000
1000
0000
0010
1000
0010
1000
,
0010
0000
0000
0100
0000
0010
1000
0000
0100
0010
0000
0000
,
0001
0000
0010
0000
0100
0000
1000
0000
0000
0000
0000
0000
,
0010
0000
0100
0010
,
1000
0000
0000
0001
0010
0100
1000
0000
1000
0010
0000
0000
,
0100
0000
0010
1000
0000
0001
0100
0001
0100
0001
0000
0100
,
0010
0100
0010
0100
0000
0000
0001
0000
0000
0010
0000
0000
,
0001
0000
1000
0100
0000
0001
0010
0001
0010
0001
0000
1000
,
0001
1000
0001
1000
0000
0000
0010
0000
0000
0010
0000
0000
,
0100
0000
0010
1000
0000
0010
0100
0000
0010
1000
0010
0100
,
0010
0000
1000
0001
0100
0001
0010
0000
0000
0100
0000
0000
,
1000
0000
0001
0100
0000
0000
0010
0000
1000
0100
0010
0100
,
0010
0000
0001
1000
0100
1000
0100
0000
0000
0010
0000
0001
,
0100
0000
0000
0000
0000
0000
0000
0000
0000
0001
0010
0100
,
1000
0010
0100
0000
,
0010
0000
1000
0010
1000
0001
0100
0000
0000
0010
0000
0000
,
0100
0010
0100
0010
0000
0000
1000
0001
1000
0001
0000
0000
,
1000
0000
0001
0100
0001
0100
0010
0000
0000
1000
0000
0000
,
0010
0100
0001
1000
,
0002
0000
0000
0000
0000
0000
1000
0000
1000
0000
1000
0000
,
0013
0100
0010
0100
0010
0100
0020
0000
0000
0130
0000
0000
,
0001
0000
1000
0001
0000
0001
1000
0000
0010
0100
0000
0100
,
0010
1000
0001
0110
,
1000
0000
0001
0100
0000
0100
0001
0000
1000
0010
0000
0010
,
1000
0000
1000
0001
0000
0000
0100
0000
0000
0110
0000
0000
,
0001
0000
0100
0010
0000
0010
1000
0000
1000
0001
0000
0001
,
0010
0000
0010
0100
0000
0000
1000
0000
0000
1001
0000
0000
,
1000
0000
0001
1000
0000
1000
0001
0000
0001
1000
0000
1000
,
0001
1000
0001
1000
0001
1000
0001
0000
0000
0000
0000
0000
,
0100
0001
0100
0010
0000
1000
0010
0100
0001
0100
0000
0000
,
0010
0000
0000
0100
0000
0000
0001
1000
0000
0010
0000
0000
,
1000
0010
0100
0001
0000
0000
0010
0100
0010
0001
0000
0000
,
1000
0000
0001
0100
0010
0000
0100
0000
0000
0001
0000
0000
,
1000
0000
0010
0100
0000
0001
0010
0100
1000
0100
0000
1000
,
0010
0100
0001
0100
0000
0000
0010
0000
0000
1000
0000
0000
,
0001
0010
0001
0100
0000
0000
0010
0000
0100
0010
0100
0001
,
0010
0100
1001
0000
,
1000
0010
0010
0010
,
0100
0000
0001
1000
0000
1000
0001
0100
0010
0100
0000
0000
,
0010
1000
0001
0100
,
0010
0100
0010
0100
0010
0100
0010
0000
1000
0001
0000
0000
,
1000
0000
0001
0100
0000
0100
0010
0000
0010
1000
0000
0000
,
1000
0000
0001
0100
0000
0000
0010
0000
0100
0000
0001
0000
,
1000
0000
0100
0100
0000
0000
0010
0000
0001
0001
0000
0000
,
1000
0001
0100
0010
,
1100
0000
0010
0100
0000
0000
1001
0000
0000
0010
0000
0000
,
1000
0000
0001
0010
0000
0000
0011
0000
0000
0010
0000
0000
,
1100
0000
0001
0100
0000
0000
0110
0000
0000
1000
0000
0000
,
0010
0000
0100
0001
0100
0001
0100
0000
0100
0000
0100
0000
,
0010
0000
1000
0010
1000
0010
0100
0000
0000
0001
0000
0000
,
0100
0000
0010
0100
0010
0100
0001
0000
1000
0001
0000
0000
,
0100
0000
0001
0000
1000
0000
0010
0000
0100
0000
0010
0000
,
0100
0000
0100
0000
0100
0000
0100
0000
0100
0000
0010
0000
,
0110
0000
0000
0000
;

//---------------dance-single - ----------------
#NOTES:
     dance-single:
     :
     Easy:
     4:
     0.368,0.424,0.278,0.352,0.097,208.000,30.000,38.000,0.000,0.000:
0000
0000
0000
0000
,
0000
0000
0000
0000
,
0000
0000
0000
0000
,
0000
0000
0000
0000
,
0000
0000
0000
0000
,
1000
0000
0001
0000
,
0100
0010
0100
0100
,
0001
0000
1000
0001
,
0100
0000
0000
0000
0000
0000
0010
0000
1000
0002
0000
0000
,
2000
0000
0000
0000
0000
0000
0000
0000
0000
3003
0000
0000
0000
0000
0000
0000
0000
0000
0000
0000
0000
0000
0020
0000
,
0200
0000
0000
0000
0000
0000
0000
0000
0000
0030
0000
0000
0302
0000
0000
0000
0000
0000
0000
0000
0000
0003
2000
0000
,
0020
0000
0000
0000
0000
0000
3030
0000
0000
0000
0000
2000
,
0002
0000
0000
0000
0000
0000
0000
0000
0000
0003
0000
0000
3001
0000
0000
0000
0100
0000
0010
0000
0000
0000
0000
0000
,
1002
1000
0100
0103
,
0100
0000
0000
0000
0010
0000
0000
0000
2000
0000
0000
0000
0020
0000
0000
0000
0000
0000
3000
0000
0000
0030
0000
0000
,
2001
0010
0100
3001
,
1000
0000
0000
0010
0100
0010
0200
0000
0000
0000
0000
0000
,
0301
0000
1000
0000
,
0001
1000
0001
0100
,
0200
0000
0310
0000
,
0100
0001
1000
1000
,
1100
0100
0010
0001
,
0010
0100
2200
3300
,
0001
0100
0010
0100
,
0001
0000
1001
1000
,
0002
0010
0020
0003
,
0130
1000
2020
3030
,
0100
0001
0100
0020
,
4000
0000
3000
1030
,
0001
0000
0110
0101
,
0002
2003
3010
0200
,
0040
0000
0000
0000
0000
0000
0000
0000
0000
0030
0000
0000
0301
0000
0000
0000
1000
0000
0000
0000
0001
0000
0000
0000
,
1000
0110
0011
1100
,
1000
0100
0010
0100
,
0020
0001
0031
1001
,
1000
0010
0100
0001
,
2000
0100
3100
0110
,
0010
0001
1000
0001
,
0200
0001
0301
0011
,
0001
1000
0010
0100
,
0010
0000
1000
0100
0000
0000
0010
0000
0001
0010
0000
0000
,
0100
0000
1000
0000
,
0010
0100
0001
0110
,
1000
0000
0001
0000
,
0100
0010
1000
0001
,
1000
0000
0010
0000
,
0100
0001
0100
0010
,
1100
0000
0011
0000
,
0110
0001
1000
0001
,
0020
0100
0000
0100
,
0030
0100
1000
0010
,
0120
0030
0000
0000
0000
0000
0000
0000
0102
0003
0000
0000
0000
0000
0000
0000
,
1000
0000
0001
0100
0000
0000
1010
0000
0000
0001
0000
0000
,
2000
0000
0010
0000
0000
0000
0010
3000
,
0200
0000
0000
0001
0000
0000
0310
0000
0010
0000
0010
0000
,
0010
0000
0000
0000
,
0000
0000
0000
0000
0000
0000
1001
0000
1000
0001
0000
0000
,
1000
0001
0210
0301
,
0001
1000
2100
3010
,
0100
0001
0012
0103
,
0001
0000
0000
0000
1000
0000
0100
0000
0000
0000
0000
0000
2200
0000
0000
0000
0000
0000
0000
0000
0000
0300
0000
0000
,
3001
0100
1010
1010
,
1000
0000
0000
0001
0000
0000
0101
0000
0001
0100
0000
0000
,
0010
0000
1000
0000
,
0001
0000
1000
0000
0001
0000
1000
0000
0000
0000
0000
0000
,
0110
0000
0100
0000
;

//---------------dance-single - ----------------
#NOTES:
     dance-single:
     :
     Beginner:
     1:
     0.122,0.211,0.009,0.120,0.000,78.000,1.000,13.000,0.000,0.000:

0000
0000
0000
0000
,
0000
0000
0000
0000
,
0000
0000
0000
0000
,
0000
0000
0000
0000
,
0000
0000
0000
0000
,
0000
0000
0000
0000
,
0000
0000
0000
0000
,
0000
0000
0000
0000
,
0000
0000
1000
0000
,
0002
0000
0000
0000
,
0203
0000
0000
0000
,
0320
0000
0000
0000
,
2030
0000
0000
0000
,
3020
0000
0000
0000
,
0230
0000
0002
0003
,
0320
0000
0000
0000
,
1030
0001
1000
0000
,
0100
0000
0000
0000
,
0010
0000
0001
1000
,
0001
0000
0000
0000
,
0100
0000
0010
0100
,
0010
0000
0000
0000
,
1000
0000
0001
0010
,
0001
0000
0000
0000
,
0100
0000
0010
1000
,
0010
0000
0000
0000
,
1000
0000
0001
0000
,
0100
0000
0010
0000
,
0100
0000
0000
0000
,
0001
0000
0000
0000
,
1000
0000
0001
0000
,
0100
0000
0010
0000
,
2000
0001
0001
0001
,
3001
0000
0000
0000
,
0010
0000
0001
0000
,
0100
0000
0000
0000
,
0010
0000
1000
0000
,
0100
0000
0000
0000
,
0010
0000
0001
0000
,
0010
0000
0000
0000
,
0100
0000
1000
0000
,
0200
0000
0000
0000
,
0000
0300
0000
0000
,
0020
0000
0000
0000
,
0000
0030
0000
0000
,
0002
0000
0000
0000
,
0000
0003
0000
0000
,
2000
0000
0000
0000
,
0000
3000
0010
0000
,
0100
0000
0000
0000
,
0000
0000
0000
0000
,
0001
0000
1000
0000
,
0000
0000
0000
0000
,
0010
0000
0100
0000
,
0000
0000
0000
0000
,
0010
0000
1000
0000
,
0001
0000
1000
0000
,
0010
0000
0000
0000
,
0100
0000
0000
0000
,
0001
0000
0000
0000
,
1000
0000
0000
0000
,
0001
0000
0000
0000
,
0100
0000
0000
0000
,
1001
0000
0000
0000
,
0100
0000
0000
0000
,
0001
0000
0000
0000
;
